Computer a Modern Learning Tool
Tequila i Bonetti / Tequila and Bonetti
worldofjava.org - The Largest Bittorent System Login   |    Register
Latest Articles
Most searched
Hot torrents
Movie Torrents
Hot torrents
TV Torrents
View Torrent Info: Arrow.S06E18.HDTV.x264-SVA[eztv]
View Torrent Info: Lucifer.S03E20.HDTV.x264-KILLERS[eztv]
View Torrent Info: Fear.the.Walking.Dead.S04E01.HDTV.x264-SVA[eztv]
View Torrent Info: Lethal.Weapon.S02E18.WEB.x264-TBS[eztv]
View Torrent Info: Supernatural.S13E18.HDTV.x264-SVA[eztv]
View Torrent Info: Supergirl.S03E14.HDTV.x264-SVA[eztv]
View Torrent Info: Young.Sheldon.S01E18.HDTV.x264-SVA[eztv]
View Torrent Info: Billions.S03E04.WEBRip.x264-PBS[eztv]
View Torrent Info: Black.Lightning.S01E12.HDTV.x264-SVA[eztv]
View Torrent Info: Brooklyn.Nine-Nine.S05E16.WEB.x264-TBS[eztv]
worldofjava.org > Categories > Movies torrents > HD torrents


Browse Movies torrents

Do You Trust This Computer 2018 720p WEB-DL x264 [MW] torrent



Download torrent: Download Do You Trust This Computer 2018 720p WEB-DL x264 [MW] torrent Magnet link Bookmark Torrent: Do You Trust This Computer 2018 720p WEB-DL x264 [MW] Do You Trust This Computer 2018 720p WEB-DL x264 [MW] torrent | if not working, try instead: Magnet Link
Info hash: E64DA05C1B73E067122368581E3790CB8E7F8343
Category: Categories > Movies torrents > HD torrents
Trackers:
17    View all torrent trackers >
Health:
 seeds: 0 ,  leechers: 0 |  Update >
Torrent language:  
Total Size: 719.30 MB
Torrent status: Added by trusted uploader Added by trusted uploader Trusted Uploader Site Friend Superman Sun
Uploader: Trusted Uploader Site Friend Superman Sun
Torrent added: 2018-04-17 07:59:45
 

Download Do You Trust This Computer 2018 720p WEB-DL x264 [MW] torrent if not working, try downloading torrent using Download Do You Trust This Computer 2018 720p WEB-DL x264 [MW] via Magnet Link




Torrent Description





General
Format : Matroska
Format version : Version 4 / Version 2
File size : 719 MiB
Duration : 1 h 18 min
Overall bit rate : 1 287 kb/s

Video
ID : 1
Format : AVC
Format/Info : Advanced Video Codec
Format profile : [email protected]
Format settings : CABAC / 4 Ref Frames
Format settings, CABAC : Yes
Format settings, RefFrames : 4 frames
Codec ID : V_MPEG4/ISO/AVC
Duration : 1 h 18 min
Bit rate : 1 200 kb/s
Width : 1 280 pixels
Height : 720 pixels
Display aspect ratio : 16:9
Frame rate mode : Constant
Frame rate : 23.976 (24000/1001) FPS
Color space : YUV
Chroma subsampling : 4:2:0
Bit depth : 8 bits
Scan type : Progressive
Bits/(Pixel*Frame) : 0.054
Stream size : 665 MiB (93%)
Writing library : x264 core 155 r2893 b00bcaf
Default : Yes
Forced : No

Audio
ID : 2
Format : AAC
Format/Info : Advanced Audio Codec
Format profile : HE-AAC / LC
Format settings : Explicit
Codec ID : A_AAC-2
Duration : 1 h 18 min
Bit rate : 96.0 kb/s
Channel(s) : 2 channels
Channel positions : Front: L R
Sampling rate : 48.0 kHz / 24.0 kHz
Frame rate : 23.438 FPS (1024 SPF)
Compression mode : Lossy
Stream size : 52.9 MiB (7%)
Default : Yes
Forced : No














#moviezworldz -> To avoid fakes, ALWAYS check that the torrent was added on worldofjava.org by moviezworldz

http://worldofjava.org/



Download Do You Trust This Computer 2018 720p WEB-DL x264 [MW] torrent


Comments (please add your comment)
No comments



Home - Browse Torrents - Upload Torrent - Stat - Forum - FAQ - Login
worldofjava.org is in compliance with copyrights
2006-2018 worldofjava.org